#TITLE:Flower & Sword;
#SUBTITLE:;
#ARTIST:JS;
#TITLETRANSLIT:Flower & Sword;
#SUBTITLETRANSLIT:;
#ARTISTTRANSLIT:JS;
#CREDIT:;
#BANNER:Flower & Sword-bn.png;
#BACKGROUND:Flower & Sword-bg.png;
#LYRICSPATH:;
#CDTITLE:pm4cd.png;
#MUSIC:Flower & Sword.mp3;
#OFFSET:0.000;
#SAMPLESTART:96.750;
#SAMPLELENGTH:20.000;
#SELECTABLE:YES;
#BPMS:0.000=120.020,79.500=240.400,79.750=240.400,81.250=120.020,81.750=80.000,82.250=120.020,94.500=240.521,97.750=80.000,98.125=120.020,146.000=240.440,147.500=80.119,148.000=120.040,148.500=120.040,161.500=240.400,167.000=120.040,259.000=240.400,267.000=120.040,281.000=240.040,285.000=120.040,298.000=240.080,304.000=120.040;
#STOPS:;
#BGCHANGES:;
// cache tags:
#FIRSTBEAT:1.500;
#LASTBEAT:500.000;
#SONGFILENAME:Songs/Music V.I.P ^_^/Flower & Sword/Flower & Sword.sm;
#HASMUSIC:1;
#HASBANNER:1;
#MUSICLENGTH:247.724;
// end cache tags

//---------------dance-single - ----------------
#NOTES:
     dance-single:
     :
     Hard:
     15:
     1.000,1.000,1.000,1.000,0.581,1102.000,621.000,255.000,0.000,319.000:
0000
0000
0000
2000
0000
0000
0000
0000
,
0000
0000
0000
3200
0000
0000
0000
0000
,
0000
0000
0000
0320
0000
0000
0000
0000
,
0000
0000
0032
0000
,
0000
0000
0000
0203
0000
0000
0000
0000
,
0000
0000
0302
0000
,
0000
0000
0023
0000
,
0000
0000
0000
0000
0000
0000
0000
0000
0000
0000
0000
0000
0000
0000
0000
0000
0000
0000
1130
0000
0000
1100
0000
0000
1100
0000
0000
1100
0000
0000
1100
0000
0000
1100
0000
0000
1100
0000
0000
1100
0000
0000
1100
0000
1100
0000
1100
0000
,
1100
0000
0000
0000
0000
0000
0000
0000
1100
0000
0000
0000
0000
0000
0000
0000
1100
0000
0000
0000
0000
0000
0000
0000
0011
0000
0000
0000
0000
0000
0011
0000
0000
0000
0000
0000
0011
0000
0000
0000
0000
0000
0011
0000
0000
0000
0000
0000
0011
0000
0000
0000
0000
0000
0011
0000
0000
0000
0000
0000
0011
0000
0000
0000
0000
0000
0011
0000
0000
0000
0000
0000
1110
0000
0000
0000
0000
0000
0000
0000
0000
0000
0000
0000
0000
0000
0000
0000
0000
0000
0000
0000
0000
0000
0000
0000
1000
0000
0000
0000
0000
0000
0000
0000
0000
0000
0000
0000
0000
0000
0000
0000
0000
0000
0000
0000
0000
0000
0000
0000
0010
0000
0000
0000
0000
0000
0000
0000
0000
0000
0000
0000
0000
0000
0000
0000
0000
0000
0000
0000
0000
0000
0000
0000
0100
0000
0000
0000
0000
0000
0000
0000
0000
0000
0000
0000
0000
0000
0000
0000
0000
0000
0000
0000
0000
0000
0000
0000
1010
0000
0000
0000
0000
0000
0000
0000
0000
0000
0000
0000
0000
0000
0000
0000
0000
0000
0000
0000
0000
0000
0000
0000
,
0001
0100
1001
0110
1000
0100
0010
0101
,
0001
0000
0100
0000
1001
0010
1100
0000
0001
0000
0100
0000
1000
0000
0101
0000
,
0010
0100
1010
0101
1100
0000
1100
1120
,
0000
0000
0000
0131
0010
0100
1000
0110
,
1000
0010
1100
0011
0100
1000
0001
1010
,
0100
0000
0010
0000
1100
0010
0101
0000
1000
0000
0010
0000
0100
1000
0011
0000
,
1000
0000
0000
0000
0010
0000
0000
0000
0110
0000
0000
0000
0101
0000
0000
0000
0011
0000
0000
0000
0000
0000
0000
0000
0110
0000
0000
0000
1001
1001
1001
1001
,
1001
0000
0000
0000
0000
0000
1001
0000
0000
0000
0000
0000
1001
0000
0000
0000
0000
0000
1001
0000
0000
0000
0000
0000
0110
0000
0000
0000
0110
0000
0000
0000
0110
0000
0000
0000
0110
0000
0000
0000
0110
0000
0000
0000
0110
0000
0000
0000
0110
0000
0000
0000
0110
0000
0000
0000
0110
0000
0000
0000
0110
0000
0000
0000
0110
0000
0000
0000
0110
0000
0000
0000
1111
0000
0000
0000
0000
0000
0000
0000
0000
0000
0000
0000
0000
0000
0000
0000
0000
0000
0000
0000
0000
0000
0000
0000
0100
0000
0000
0000
0000
0000
0000
0000
0000
0000
0000
0000
0000
0000
0000
0000
0000
0000
0000
0000
0000
0000
0000
0000
0010
0000
0000
0000
0000
0000
0000
0000
0000
0000
0000
0000
0000
0000
0000
0000
0000
0000
0000
0000
0000
0000
0000
0000
1000
0000
0000
0000
0000
0000
0000
0000
0000
0000
0000
0000
0000
0000
0000
0000
0000
0000
0000
0000
0000
0000
0000
0000
1100
0000
0000
0000
0000
0000
0000
0000
0000
0000
0000
0000
0000
0000
0000
0000
0000
0000
0000
0000
0000
0000
0000
0000
,
0010
0001
0011
0101
1000
0010
1000
0110
,
0001
0000
1000
0000
0101
0001
0011
0000
0001
0000
0100
0000
0010
0000
0101
0000
,
0010
0100
1100
0101
0011
0000
0101
0021
,
0000
0000
0000
0000
0000
0000
0000
0000
0000
0131
0000
1000
0000
0010
0000
0001
,
0000
1100
0000
0010
0000
1000
0000
0101
0000
0011
0000
0100
0000
0010
0000
1000
,
0000
0110
0000
0001
0000
0010
0000
0101
0010
1010
0000
1000
0000
0100
0000
0001
,
0010
0011
0000
1000
0000
0010
0000
1001
0010
0210
0000
1020
0000
0000
0000
0000
,
0000
0000
1001
0000
0000
0000
0000
0000
0000
0000
0000
0000
0000
0000
1001
1001
1331
1001
1001
1001
1001
1001
1001
1001
1001
1001
1001
1001
1001
1111
0000
0000
,
1000
0100
0010
0101
0010
0001
0101
0011
,
1000
0000
0100
0000
1000
0000
0110
0000
0010
0000
0100
0000
1010
0100
1100
0000
,
1000
0100
0010
0101
0001
1000
0110
1001
,
0000
0110
0000
0000
1001
0000
0110
0000
0000
0000
1010
0000
1001
0010
0011
0000
,
0001
0100
0010
0101
0100
0010
0101
0011
,
0010
0000
0100
0000
0001
0000
1010
0000
1000
0000
0100
0000
0110
0001
1001
0000
,
0100
1000
0100
1010
0010
0100
1100
0021
,
1001
0000
1100
0000
0101
0000
1100
0000
1001
0000
0101
0000
1000
0100
1031
0000
,
1001
0100
0011
0000
0100
0000
1010
0000
0010
0000
0101
0000
0011
0000
1001
0000
,
0100
0000
0011
0000
0001
0000
1100
0000
0100
0000
0101
0000
1100
0001
0110
0000
,
1000
1100
0010
0101
0001
1100
1010
0101
,
1001
0110
0101
1200
0000
0000
0000
0000
,
1301
1000
0010
0100
0011
1000
0010
0011
,
0101
0000
0001
0000
0010
0000
0001
0000
0110
0000
1000
0000
0100
0000
0110
1000
,
0102
1000
0010
0100
1103
0001
0010
1010
,
0101
0000
0000
0110
0000
0000
1122
1100
1100
1100
1100
1100
1100
1100
1100
1100
,
1100
1100
1100
1100
1100
1100
1100
1100
1100
1100
1100
1130
1113
0000
0001
0000
,
0100
1000
0101
0010
1000
0110
1010
0001
,
0100
0000
0010
0000
0101
0000
0010
0000
1000
0000
0101
1000
0110
0000
1000
0000
,
0100
0010
1001
0010
0100
0011
0101
0110
,
0000
1100
0022
0000
0000
0000
1133
0011
,
0110
1001
1010
0101
1001
0110
1001
1100
,
0110
0000
1100
0000
0011
0000
0110
0000
1100
0000
0101
0001
1001
0000
1010
0000
,
0110
0101
0011
0101
1010
1100
1010
0110
,
0011
0000
0000
0000
0000
0000
0000
0000
0000
0000
0000
0000
0000
0000
0000
0000
0000
0000
0000
0000
0000
0000
0000
0000
1100
0000
0000
0000
0000
0000
0000
0000
0000
0000
0000
0000
0000
0000
0000
0000
1010
0000
0000
0000
0000
0000
0000
0000
1010
0000
0000
0000
0000
0000
0000
0000
1010
0000
0000
0000
0000
0000
0000
0000
1010
0000
0000
0000
0000
0000
0000
0000
1010
0000
0000
0000
0000
0000
0000
0000
1010
0000
0000
0000
0000
0000
0000
0000
1010
0000
0000
0000
0000
0000
0000
0000
0101
0000
0000
0000
0000
0000
0101
0000
0000
0000
0000
0000
0101
0000
0000
0000
0000
0000
0101
0000
0000
0000
0000
0000
0101
0000
0000
0000
0000
0000
0101
0000
0000
0000
0000
0000
0101
0000
0000
0000
0000
0000
0101
0000
0000
0000
0000
0000
0111
0000
0000
0000
0000
0000
0000
0000
0000
0000
0000
0000
0000
0000
0000
0000
0000
0000
0000
0000
0000
0000
0000
0000
0110
0000
0000
0000
0000
0000
0000
0000
0000
0000
0000
0000
0000
0000
0000
0000
0000
0000
0000
0000
0000
0000
0000
0000
,
1001
1010
1100
0101
0011
0110
0011
0110
,
1100
0000
1010
0000
0101
0000
1001
0000
0101
0000
1010
1000
0110
0000
0011
0000
,
0110
1100
0011
0101
1010
0110
1001
0110
,
1100
0101
0011
0101
1001
0011
1110
0011
,
0110
0011
1110
1100
0101
1011
1101
0011
,
0110
0000
1100
0000
0111
0000
0101
0000
1010
0000
0111
0010
1120
0000
1100
0000
,
1001
0000
0101
0000
1101
0000
0131
0000
0110
0000
1101
0000
0121
0000
2000
3000
,
2002
0000
0000
0000
0000
0000
0000
0000
0000
0000
0000
0000
3003
0000
0000
0000
0000
0000
0000
0000
0000
0000
0000
0000
0202
0000
0000
0000
0000
0000
0000
0000
0000
0000
0000
0000
0303
0000
0000
0000
0000
0000
0000
0000
0000
0000
0000
0000
2230
0000
0000
0000
0000
0000
0000
0000
0000
0000
0000
0000
3300
0000
0000
0000
0000
0000
0000
0000
0000
0000
0000
0000
0220
0000
0000
0000
0000
0000
0000
0000
0000
0000
0000
0000
0000
0000
0000
0000
0000
0000
0000
0000
0000
0000
0000
0000
2032
0000
0000
0000
0000
0000
0000
0000
0000
0000
0000
0000
0000
0000
0000
0000
0300
0000
0000
0000
0000
0000
0000
0000
0220
0000
0000
0000
0000
0000
0330
0000
0003
0000
0000
0000
0022
0000
0000
0000
0000
0000
0033
0000
0000
0000
0000
0000
0220
0000
0000
0000
0000
0000
0000
0000
0000
0000
0000
0000
0000
0000
0000
0000
0000
0000
0000
0000
0000
0000
0000
0000
3002
0000
0000
0000
0000
0000
0000
0000
0000
0000
0000
0000
0300
0000
0000
0000
0000
0000
0000
0000
0000
0000
0000
0000
,
0200
0000
0000
0000
2003
0000
0300
0000
0202
0000
0000
0003
0002
0000
0000
0003
0002
0000
0030
0000
3020
0000
0030
0000
2320
0000
0000
0000
0203
0000
0030
0000
,
0020
0000
0300
0000
0232
0000
0003
0000
0022
0000
3000
0000
2000
0000
0003
0000
0002
0000
3000
0300
2203
3300
2002
3003
0232
0000
0000
0000
0020
0000
0300
0000
,
0200
0000
0000
0000
2000
0000
0030
0300
3220
0000
0000
0000
2000
0000
3000
0000
2003
0000
0000
0000
0032
0000
3003
0000
2002
0000
0000
0000
0320
0000
0000
0000
,
0200
0000
0030
0000
0020
0000
0303
0000
3202
0000
0300
0000
2200
3300
2230
3300
2200
0300
0000
0000
0220
0330
0220
0330
0220
0030
0000
0000
0023
0000
0000
0000
,
3002
0000
0030
0000
2003
0000
3000
0000
2002
0000
0000
0000
0020
0000
0003
0000
0002
0000
0300
0003
0202
0000
0030
0000
0020
0000
0030
0000
3020
0000
0300
0000
,
2000
0000
0003
0000
0202
0000
0030
0300
0223
0000
0000
0000
0002
0000
0000
0003
0002
0000
3030
0003
2020
3030
0022
0033
2320
0000
0000
0000
0202
0000
0030
0000
,
0020
0000
0303
0000
0202
0000
0300
0030
0220
0000
0030
0300
0223
0330
0022
0033
3220
0000
0000
0300
0202
0303
2200
3300
2232
0000
0000
0000
0000
0000
0000
0000
,
0000
0000
0000
0000
0000
0000
0000
0000
0000
0000
0000
0000
0000
0000
0000
0000
0000
0000
0000
0000
0000
0000
0000
0000
0000
0000
0000
0000
0000
0000
0000
0000
0000
0000
0000
0000
0000
0000
0000
0000
0000
0000
0000
0000
0000
0000
0000
0000
0020
0000
0000
0000
0000
0000
0000
0000
0000
0000
0000
0000
0000
0000
0000
0000
0000
0000
0000
0000
0000
0000
0000
0000
0000
0000
0000
0000
0000
0000
0000
0000
0000
0000
0000
0000
0003
0000
0000
0000
0030
0000
0000
0000
0000
0000
0000
0000
0022
0000
0000
0000
0000
0000
0000
0000
0000
0000
0000
0000
0000
0000
0000
0000
0000
0000
0033
0000
0000
0000
0000
0000
0022
0000
0000
0000
0000
0000
0000
0000
0000
0000
0000
0000
0000
0000
0000
0000
0000
0000
0033
0000
0000
0000
0000
0000
0022
0000
0000
0000
0000
0000
0000
0000
0000
0000
0000
0000
0000
0000
0000
0000
0000
0000
0000
0000
0000
0000
0000
0000
0000
0000
0000
0000
0000
0000
0000
0000
0000
0000
0000
0000
0000
0000
0000
0000
0000
0000
0000
0000
0000
0000
0000
0000
,
0000
0000
0000
0000
3300
0000
1133
0001
,
0100
0010
0101
0010
0100
1100
1001
1000
,
0100
0000
0010
0000
0011
0000
0010
0000
0100
0000
1010
0010
0101
0000
0010
0000
,
0100
1000
1100
0100
0010
1001
0101
1001
,
0110
0101
2002
0000
0000
0110
0000
0000
,
0110
0000
0000
0000
0110
0000
0000
3003
1001
0000
0000
0000
0001
0000
0100
0000
1010
0000
0000
0000
1000
0000
0000
0000
0100
0000
0000
0000
0010
0000
0000
0000
,
0100
1010
0101
0010
0100
1000
1001
0010
,
0100
0000
1001
0100
1010
0000
0100
0000
0010
0000
0001
0000
1100
0000
0010
0000
,
0001
0000
0101
0000
0101
0000
0101
0000
0201
0000
1010
0000
1010
0000
1010
1010
,
1010
0000
0000
1010
0000
0000
1010
0000
0000
1010
0000
0000
1010
0000
0000
1010
0000
0000
1010
0000
0000
1010
0000
0000
0011
0000
0011
0000
0011
0000
0011
0000
0011
0000
0011
0000
0011
0000
0011
0000
0011
0000
0011
0000
0011
0000
0011
0000
,
1311
1000
1010
0100
0011
0001
0110
1100
,
0101
0000
0001
0000
1001
0000
0100
0000
0110
0000
1000
0000
0101
0000
0110
0100
,
1100
0001
1001
0100
0011
0100
0101
0110
,
1001
0000
0000
0101
0000
0000
1100
0000
0110
0000
0011
0000
0110
0000
1101
0000
,
1011
0111
1110
1101
1011
0111
1101
1110
,
1011
0000
1101
0000
0111
0000
1101
0000
1011
0000
1110
0000
1011
0000
2110
0011
,
0111
0111
0111
0111
3112
1110
1110
1110
,
1113
0000
0000
0000
0000
0000
0000
0000
0000
0000
0000
0000
0000
0000
0000
0000
0000
0000
0000
0000
0000
0000
0000
0000
0000
0000
0000
0000
0000
0000
0000
0000
0000
0000
0000
0000
1101
0000
0000
0000
0000
0000
0000
0000
0000
0000
0000
0000
0000
0000
0000
0000
0000
0000
0000
0000
0000
0000
0000
0000
0000
0000
0000
0000
0000
0000
0000
0000
0000
0000
0000
0000
1011
0000
0000
0000
0000
0000
0000
0000
0000
0000
0000
0000
0000
0000
0000
0000
0000
0000
0000
0000
0000
0000
0000
0000
0101
0000
0000
0000
0000
0000
0000
0000
0101
0000
0000
0000
0000
0000
0000
0000
0101
0000
0000
0000
0000
0000
0000
0000
0101
0000
0000
0000
0000
0000
0000
0000
0101
0000
0000
0000
0000
0000
0000
0000
0101
0000
0000
0000
0000
0000
0000
0000
1010
0000
0000
0000
0000
0000
1010
0000
0000
0000
0000
0000
1010
0000
0000
0000
0000
0000
1010
0000
0000
0000
0000
0000
1010
0000
0000
0000
0000
0000
1010
0000
0000
0000
0000
0000
1010
0000
0000
0000
0000
0000
1010
0000
0000
0000
0000
0000
,
1101
0111
1110
0111
1101
1011
1101
0111
,
1011
0000
1110
0000
1101
0000
0111
0000
1101
0000
1011
0000
1110
0000
1011
0101
,
1120
1101
1101
1101
1231
1011
1011
1311
,
1011
0000
0000
0111
0000
0000
1000
0100
1011
0000
0001
0010
1101
0000
0001
0010
,
1110
1101
1011
1110
0111
1101
0111
1101
,
0111
0000
1110
0000
1011
0000
1110
0000
1101
0000
0111
0000
1011
0000
1110
0011
,
1102
1110
1110
1110
1113
0111
1011
1101
,
0211
0000
0000
0000
,
1311
0000
2000
3200
0300
0020
0000
0000
,
0232
0303
0002
0023
0030
2000
0000
0000
,
3022
0000
0000
0000
2000
0000
3200
0030
0300
0000
0020
0000
0030
0000
0003
0000
,
0020
0000
0000
0000
2200
0000
0000
3300
0232
0303
2000
0000
3202
0303
0000
0000
,
2020
0230
0320
0032
0003
3020
0000
0000
,
2230
3320
0032
0023
0230
2300
3200
0320
,
0032
0000
0020
2030
3200
0320
2030
3020
,
2033
3200
0320
0032
0023
0230
2300
3200
,
2322
0033
0200
0320
0030
0200
3000
0000
,
2320
3002
0203
2300
3000
0002
0030
0000
,
2203
0300
0002
0023
0230
0300
0020
0030
,
3220
0332
2000
3200
0320
0230
2300
3200
,
2323
3200
0302
0203
0300
0002
0030
0023
,
0230
2000
3020
0032
0003
0020
0300
0000
,
2032
0200
0023
0002
0300
0030
0000
0000
,
3113
0000
0000
0000
0000
0000
0000
0000
0000
0000
0000
0000
0000
0000
0000
0000
0000
0000
0000
0000
0000
0000
0000
0000
0000
0000
0000
0000
0000
0000
0000
0000
0000
0000
0000
0000
1101
0000
0000
0000
0000
0000
0000
0000
0000
0000
0000
0000
0000
0000
0000
0000
0000
0000
0000
0000
0000
0000
0000
0000
0000
0000
0000
0000
0000
0000
0000
0000
0000
0000
0000
0000
1101
0000
0000
0000
0000
0000
0000
0000
0000
0000
0000
0000
0000
0000
0000
0000
0000
0000
0000
0000
0000
0000
0000
0000
0110
0000
0000
0000
0000
0000
0000
0000
0110
0000
0000
0000
0000
0000
0000
0000
0110
0000
0000
0000
0000
0000
0000
0000
0110
0000
0000
0000
0000
0000
0000
0000
0110
0000
0000
0000
0000
0000
0000
0000
0110
0000
0000
0000
0000
0000
0000
0000
1001
0000
0000
0000
0000
0000
1001
0000
0000
0000
0000
0000
1001
0000
0000
0000
0000
0000
1001
0000
0000
0000
0000
0000
1001
0000
0000
0000
0000
0000
1001
0000
0000
0000
0000
0000
1001
0000
0000
0000
0000
0000
1001
0000
0000
0000
0000
0000
,
1211
1000
0010
0001
0010
1000
0010
0001
1010
0001
0010
0001
0010
1000
0010
1001
,
0311
0100
1000
0100
0010
0001
0100
0010
1001
0010
0001
0100
0010
1000
0011
0110
,
2100
0010
0001
0100
0010
0001
0100
0001
0110
0001
0010
0100
0010
0001
0010
0101
,
3110
0001
0110
0001
1100
0010
1100
0001
0110
1000
0101
0010
0101
0010
1100
0010
,
1002
0100
0010
0100
1000
0100
0010
0100
1010
0100
0010
1000
0100
1000
0010
1100
,
0113
0001
0010
1000
0100
0010
0001
0100
1001
0010
1000
0100
0010
0001
1100
1001
,
0021
0100
1000
0001
0100
0001
1000
0100
1001
0100
1000
0100
0001
0100
0001
1100
,
1031
0000
0000
0000
0000
0000
0000
0000
0000
0000
0000
0000
0100
0000
0000
0000
0000
0000
0000
0000
0000
0000
0000
0000
1000
0000
0000
0000
0000
0000
0000
0000
0000
0000
0000
0000
0110
0000
0000
0000
0000
0000
0000
0000
0000
0000
0000
0000
0001
0000
0000
0000
0000
0000
0000
0000
0000
0000
0000
0000
0100
0000
0000
0000
0000
0000
0000
0000
0000
0000
0000
0000
1010
0000
0000
0000
0000
0000
0000
0000
0000
0000
0000
0000
0001
0000
0000
0000
0000
0000
0000
0000
0000
0000
0000
0000
1100
0000
0000
0000
0000
0000
0000
0000
1100
0000
0000
0000
0000
0000
0000
0000
1100
0000
0000
0000
0000
0000
0000
0000
1100
0000
0000
0000
0000
0000
0000
0000
1100
0000
0000
0000
0000
0000
0000
0000
1100
0000
0000
0000
0000
0000
0000
0000
0011
0000
0000
0000
0000
0000
0011
0000
0000
0000
0000
0000
0011
0000
0000
0000
0000
0000
0011
0000
0000
0000
0000
0000
0011
0000
0000
0000
0000
0000
0011
0000
0000
0000
0000
0000
0011
0000
0000
0000
0000
0000
0011
0000
0000
0000
0000
0000
,
1112
0010
0100
1000
0010
0100
0010
1000
0110
1000
0010
0100
1000
0010
0100
1010
,
0113
1000
0010
0001
0100
0001
1000
0010
0101
0010
0100
1000
0010
0100
1001
0011
,
0120
0001
0100
0001
1000
0100
1000
0001
1100
0001
1000
0100
0001
0100
1000
0101
,
1031
0100
0010
0101
0010
0001
1100
0001
1010
0100
0001
1000
0011
0100
0001
0100
,
1012
0100
1000
0010
0100
1000
0010
0100
1010
0100
0010
1000
0010
0100
1000
0110
,
1013
0100
0001
0010
0100
0010
0001
1000
0101
0010
1000
0010
0100
1000
0110
0101
,
1020
0100
0001
1000
0001
1000
0100
1000
0101
1000
0001
0100
0001
1000
0100
0001
,
2232
0020
0000
0000
,
0000
0000
0000
0000
,
3333
0000
0000
0000
;

//---------------dance-single - ----------------
#NOTES:
     dance-single:
     :
     Medium:
     1:
     0.000,0.000,0.000,0.000,0.000,0.000,0.000,0.000,0.000,0.000:
0000
0000
0000
0000
;

//---------------dance-single - ----------------
#NOTES:
     dance-single:
     :
     Easy:
     1:
     0.000,0.000,0.000,0.000,0.000,0.000,0.000,0.000,0.000,0.000:
0000
0000
0000
0000
;
